+ ShareSpark.net »  :::: Dubbed Zone (Dubbed English in Hindi) » English Movies Dubbed in Hindi » TeamSSX Dubbed Releases
|- Sleepy Hollow 1999 720p BluRay x264 Eng-Hindi AC3 DD2.0 [Team SSX]

DTH Recharges 20% Back

Sleepy Hollow 1999 720p BluRay x264 Eng-Hindi AC3 DD2.0 [Team SSX]

0 Members and 1 Guest are viewing this topic.

April 19, 2018, 10:55:59 PM
  • *****************
  • Head Admin
  • Legend Member
  • *****
  • Topic Author
  • Thank You: 6307
  • Reputation: 2774
  • Activity:
    100%
  • Country: in
  • Posts: 18362
  • Topics: 10818
  • Join Date: Mar 2012
  • The Time Is Now......








General

Format                                   : Matroska
Format version                           : Version 4 / Version 2
File size                                : 1.01 GiB
Duration                                 : 1 h 45 min
Overall bit rate                         : 1 377 kb/s


Video
ID                                       : 1
Format                                   : AVC
Format/Info                              : Advanced Video Codec
Format profile                           : [email protected]
Format settings                          : CABAC / 8 Ref Frames
Format settings, CABAC                   : Yes
Format settings, RefFrames               : 8 frames
Codec ID                                 : V_MPEG4/ISO/AVC
Duration                                 : 1 h 45 min
Bit rate                                 : 900 kb/s
Width                                    : 1 280 pixels
Height                                   : 720 pixels
Display aspect ratio                     : 16:9
Frame rate mode                          : Constant
Frame rate                               : 23.976 (24000/1001) FPS
Color space                              : YUV
Chroma subsampling                       : 4:2:0
Bit depth                                : 8 bits
Scan type                                : Progressive
Bits/(Pixel*Frame)                       : 0.041
Stream size                              : 679 MiB (65%)
Default                                  : Yes
Forced                                   : No

Audio #1
ID                                       : 2
Format                                   : AAC
Format/Info                              : Advanced Audio Codec
Format profile                           : LC
Codec ID                                 : A_AAC-2
Duration                                 : 1 h 45 min
Bit rate                                 : 92.0 kb/s
Channel(s)                               : 2 channels
Channel positions                        : Front: L R
Sampling rate                            : 48.0 kHz
Frame rate                               : 46.875 FPS (1024 SPF)
Compression mode                         : Lossy
Delay relative to video                  : -83 ms
Stream size                              : 69.4 MiB (7%)
Language                                 : English
Default                                  : No
Forced                                   : No

Audio #2
ID                                       : 3
Format                                   : AC-3
Format/Info                              : Audio Coding 3
Codec ID                                 : A_AC3
Duration                                 : 1 h 45 min
Bit rate mode                            : Constant
Bit rate                                 : 384 kb/s
Channel(s)                               : 2 channels
Channel positions                        : Front: L R
Sampling rate                            : 48.0 kHz
Frame rate                               : 31.250 FPS (1536 SPF)
Bit depth                                : 16 bits
Compression mode                         : Lossy
Delay relative to video                  : 9 s 817 ms
Stream size                              : 289 MiB (28%)
Language                                 : Hindi
Service kind                             : Complete Main
Default                                  : Yes
Forced                                   : No


































Share this topic on FacebookShare this topic on GoogleShare this topic on MySpaceShare this topic on TwitterShare this topic on Yahoo



Thanks given by:


Tags:
 

Related Topics




Back to top